Download Zaloguj się, by sprawdzić wiadomości Album Chat
Strona główna Grupy Użytkownicy Twoje konto Statystyki Rejestracja Zaloguj

Poprzedni temat «» Następny temat
Dj Buhh: American Mylffon Mixtape
Autor Wiadomość
Kazio 
Rekrut


Dołączył: 30 Maj 2006
Posty: 940
Wysłany: Czw 13 Gru, 2007   Dj Buhh: American Mylffon Mixtape

Dj Buhh prezentuje: "American Mylffon" już jest do pobrania w internecie całkowicie za darmo:
mirror1: http://rapidshare.com/fil...DJBUHH.zip.html
mirror2: http://www.bestsharing.com/f/w7tw6378284
mirror3: http://www.sendspace.pl/file/HY3hi5iJ/





Na najnowszej produkcji Dj Buhh zremiksował Jay-Z z płyty "American Gangster" oraz bity z albumu "Esende Mylffon" wyprodukowanego Matheo. Mixtape jedyny w swoim rodzaju! Prawdopodobnie najlepszy jaki słyszałeś! Zapraszamy też na oficjalny profil www.myspace.com/djbuhh.


Zapraszamy też do sprawdzenia video zapowiedzi:
http://pl.youtube.com/watch?v=9pyZg-IcOrI
oraz
http://pl.youtube.com/watch?v=W4ixl6OHMuY






Powiem krótko: Miłe zaskoczenie. I to jest hip hop. Zawsze same nowości, u Tedego hip hop ciągle "żyje" nie jak u innych raperów od płyty do płyty i skosić hajs.

:ok:
_________________
 
 
 
Rof
[Usunięty]

Wysłany: Pią 14 Gru, 2007   

Z głupia zapytam - cue do tego jest? :]
 
 
Kazio 
Rekrut


Dołączył: 30 Maj 2006
Posty: 940
Wysłany: Sob 15 Gru, 2007   

tzn?
_________________
 
 
 
Rof
[Usunięty]

Wysłany: Nie 16 Gru, 2007   

.cue to taki plik, który jest dawany do setów/mixów i w nim jest... A nie chce mi się mówić, tak to wyglada :P

Kod:
PERFORMER "VA"
TITLE "The Worlds Greatest Funky House"
FILE "201-cd2_fiercer_mix-the_worlds_greatest_funky_house.mp3" MP3
  TRACK 01 AUDIO
    TITLE "MyMyMy"
    PERFORMER "Armand Van Helden"
    INDEX 01 00:00:00
  TRACK 02 AUDIO
    TITLE "Reach Out To me (Haji & Emanuel Vocal Mix)"
    PERFORMER "ATFC"
    INDEX 01 05:07:50
  TRACK 03 AUDIO
    TITLE "Dont You Love Me (Electro Retro Mix)"
    PERFORMER "Andy Caldwell"
    INDEX 01 11:07:46
  TRACK 04 AUDIO
    TITLE "Didn't Mean To Turn You on (Justin Martin Vocal Mix)"
    PERFORMER "Colette"
    INDEX 01 15:07:46
  TRACK 05 AUDIO
    TITLE "The Way"
    PERFORMER "Trophy Twins"
    INDEX 01 19:22:44
  TRACK 06 AUDIO
    TITLE "Shimmering Stars"
    PERFORMER "Jakatta"
    INDEX 01 25:45:08
  TRACK 07 AUDIO
    TITLE "Open Your Eyes"
    PERFORMER "M-Factor"
    INDEX 01 31:45:08
  TRACK 08 AUDIO
    TITLE "Things I Wanna Do"
    PERFORMER "Patrick-L"
    INDEX 01 37:45:08
  TRACK 09 AUDIO
    TITLE "You Used to Hold Me (Club Mix)"
    PERFORMER "Marc Leaf Vs Ralphi Rosario"
    INDEX 00 42:46:70
    INDEX 01 42:46:73
  TRACK 10 AUDIO
    TITLE "69% Of Mine"
    PERFORMER "Marshall Jefferson Vs ATFC"
    INDEX 01 47:46:56
  TRACK 11 AUDIO
    TITLE "Friday Night"
    PERFORMER "Sex Machine Ft Shena"
    INDEX 01 52:01:03
  TRACK 12 AUDIO
    TITLE "Our Roots (Club Mix)"
    PERFORMER "Eric Smax & Thomas Gold"
    INDEX 01 57:58:04
  TRACK 13 AUDIO
    TITLE "I Luv U Baby"
    PERFORMER "The Original"
    INDEX 01 62:13:03
  TRACK 14 AUDIO
    TITLE "Carino (House Mix)"
    PERFORMER "ATFC"
    INDEX 01 68:20:41
  TRACK 15 AUDIO
    TITLE "Im Attracted To You"
    PERFORMER "Burning Divaz"
    INDEX 01 74:05:40
 
 
ramirez_vip 
Rekrut


Dołączył: 20 Paź 2005
Posty: 1606
Skąd: 127.0.0.2
Wysłany: Nie 16 Gru, 2007   

nie ma pliku cue... lisat utworów... tzn. same nazwy znajdują się na obrazku okładki
_________________


 
 
 
domin.
Veteran


Dołączył: 04 Maj 2006
Posty: 923
Skąd: Sztum
Wysłany: Nie 16 Gru, 2007   

Bez sensu ten mixtejp.
_________________
 
 
Rof
[Usunięty]

Wysłany: Nie 16 Gru, 2007   

Szkoda, że nie ma. I niestety muszę przyznać rację dominowi, nic fajnego w nim nie ma :]
 
 
Traceur_brk
User


Dołączył: 03 Lut 2006
Posty: 201
Wysłany: Nie 16 Gru, 2007   

na ch*j Ci ten cue. ?
Dzieki za plytke zapowiada sie ciekawie ;)
 
 
Rof
[Usunięty]

Wysłany: Nie 16 Gru, 2007   

Na to żeby podzielić mix na pojedyncze mp3. Napisałem wyżej :|
 
 
Kazio 
Rekrut


Dołączył: 30 Maj 2006
Posty: 940
Wysłany: Nie 16 Gru, 2007   

Tutaj masz podzielone na kawałki
http://rapidshare.com/fil...can_Mylffon.rar
_________________
 
 
 
Rof
[Usunięty]

Wysłany: Pon 17 Gru, 2007   

Dzięki Kaziu, ale słaby ten mix tape :P Chiałem wtedy, gdy go jeszcze nie przesłuchałem.
 
 
Wyświetl posty z ostatnich:   
Odpowiedz do tematu
Nie możesz pisać nowych tematów
Nie możesz odpowiadać w tematach
Nie możesz zmieniać swoich postów
Nie możesz usuwać swoich postów
Nie możesz głosować w ankietach
Nie możesz załączać plików na tym forum
Nie możesz ściągać załączników na tym forum
Dodaj temat do Ulubionych
Wersja do druku

Skocz do:  

Powered by phpBB modified by Przemo © 2003 phpBB Group
Support forum phpbb by phpBB Assistant
Strona wygenerowana w 0,04 sekundy. Zapytań do SQL: 25